The Fly 1986 1080p BluRay DTS x264-CtrlHD
Người Ruồi
Jeff Goldblum, Geena Davis, John Getz


Seth Brundle (Goldblum), một nhà khoa học tài năng nhưng lập dị, Seth đang trong giai đoạn hoàn thành cỗ máy thời gian của mình, và anh quyết định sẽ thử nghiệm lần cuối cùng trên cơ thể mình. Nhưng thật không may, một con ruồi bay vào cỗ máy cùng với Brundle. Sau khi ấn nút, Brundle hóa thành “người-ruồi” và bi kịch diễn ra từ đó.
The Fly là một bộ phim khoa học viễn tưởng kinh dị được đạo diễn và viết kịch bản bởi David Cronenberg. Nó được sản xuất bởi Brooksfilms và phát hành bởi 20th Centery Fox, với sự tham gia của các diễn viên nổi tiếng như Jeff Goldblum, Geena Davis và John Getz. Nó vốn được dựa trên một câu chuyện ngắn cùng tên của tác giả George Langelaan ở năm 1957, và được coi là phiên bản làm lại của bộ phim chuyển thể ở năm 1958. The Fly phiên bản gốc ra mắt năm 1958, nhưng tới nay thì hầu như chẳng còn ai nhớ tới nó. Lý do không phải vì bộ phim cũ dở, mà bởi phiên bản làm lại năm 1986 của David Cronenberg quá xuất sắc và là tác phẩm để đời của vị đạo diễn nổi tiếng này. David Cronenberg khéo léo lồng thêm vào đó một câu chuyện tình đầy bi kịch để lôi kéo người xem, đồng thời thêm thắt nhiều khoảnh khắc kinh dị khiến khán giả run sợ. Được hỗ trợ bởi đội ngũ hóa trang và hiệu ứng xuất sắc, cùng diễn xuất tuyệt vời của dàn diễn viên và kết thúc bất ngờ khiến khán giả phải suy nghĩ, The Fly phiên bản năm 1986 không những tiến bộ hơn trước mà còn được liệt vào danh sách một trong số các bộ phim kinh dị xuất sắc nhất mọi thời đại.

[ATTACH=full]279193[/ATTACH]
[ATTACH=full]279192[/ATTACH]



INFORMATION
Format : Matroska
Format version : Version 1
File size : 7.95 GiB
Duration : 1 h 35 min
Overall bit rate : 11.9 Mb/s
Encoded date : UTC 2007-11-09 23:27:39
Writing application : mkvmerge v2.1.0 ('Another Place To Fall') built on Aug 19 2007 13:45:34
Writing library : libebml v0.7.7 + libmatroska v0.8.1


Video
ID : 1
Format : AVC
Format/Info : Advanced Video Codec
Format profile : [email protected]
Format settings, CABAC : Yes
Format settings, ReFrames : 8 frames
Format settings, GOP : N=1
Codec ID : V_MPEG4/ISO/AVC
Duration : 1 h 35 min
Bit rate : 10.4 Mb/s
Width : 1 920 pixels
Height : 1 040 pixels
Display aspect ratio : 1.85:1
Frame rate mode : Constant
Frame rate : 23.976 FPS
Color space : YUV
Chroma subsampling : 4:2:0
Bit depth : 8 bits
Scan type : Progressive
Bits/(Pixel*Frame) : 0.217
Stream size : 6.78 GiB (85%)
Writing library : x264 core 56 svn-680
Encoding settings : cabac=1 / ref=5 / deblock=1:-3:-3 / analyse=0x3:0x133 / me=umh / subme=7 / brdo=1 / mixed_ref=1 / me_range=16 / chroma_me=1 / trellis=1 / 8x8dct=1 / cqm=2 / deadzone=21,11 / chroma_qp_offset=0 / threads=3 / nr=0 / decimate=0 / mbaff=0 / bframes=3 / b_pyramid=1 / b_adapt=1 / b_bias=0 / direct=1 / wpredb=1 / bime=1 / keyint=250 / keyint_min=25 / scenecut=40(pre) / rc=2pass / bitrate=10389 / ratetol=1.0 / rceq='blurCplx^(1-qComp)' / qcomp=0.60 / qpmin=10 / qpmax=51 / qpstep=4 / cplxblur=20.0 / qblur=0.5 / ip_ratio=1.40 / pb_ratio=1.30
Language : English
Default : Yes
Forced : No


Audio
ID : 2
Format : DTS
Format/Info : Digital Theater Systems
Mode : 16
Format settings, Endianness : Big
Codec ID : A_DTS
Duration : 1 h 35 min
Bit rate mode : Constant
Bit rate : 1 509 kb/s
Channel(s) : 6 channels
Channel positions : Front: L C R, Side: L R, LFE
Sampling rate : 48.0 kHz
Frame rate : 93.750 FPS (512 spf)
Bit depth : 24 bits
Compression mode : Lossy
Stream size : 1.01 GiB (13%)
Language : English
Default : Yes
Forced : No





DOWNLOAD
[hide][/hide]




SUBTITLE
[hide][/hide]






BẢN 720p