Hotel Rwanda 2004 1080p BluRay DTS x264-CtrlHD
Khách Sạn Rwanda
Don Cheadle, Sophie Okonedo, Joaquin Phoenix


Hotel Rwanda (2004) là bộ phim kể về thảm họa diệt chủng có thật tại Rwanda năm 1994, trong đó người Hutu (bộ tộc chiếm đa số) tàn sát gần triệu người Tutsi (bộ tộc thiểu số nhưng sở hữu nhiều đất đai hơn) trong hơn 100 ngày. Paul Rusesabagina là một người Hutu chính thống. Anh quản lý một khách sạn lớn tại Rwanda. Khi chứng kiến cuộc thảm sát đẫm máu xảy ra, Paul đã dùng tính mạng của mình để cứu sống hàng ngàn người Tutsi, đồng thời dùng ảnh hưởng của anh để gây áp lực với các nhà chức trách. Hotel Rwanda nhận được 3 đề cử Oscar ở các hạng mục: Nam diễn viên xuất sắc (Don Cheadle), Nữ diễn viên phụ xuất sắc (Sophie Okonedo) và Kịch bản gốc xuất sắc. Phim xếp thứ 73 trong danh sách "100 phim hay nhất mọi thời đại".
[ATTACH=full]275779[/ATTACH]
[ATTACH=full]275780[/ATTACH]
[ATTACH=full]275781[/ATTACH]


INFORMATION
Format : Matroska
Format version : Version 4 / Version 2
File size : 10.7 GiB
Duration : 2 h 1 min
Overall bit rate : 12.5 Mb/s
Encoded date : UTC 2015-03-19 0844
Writing application : mkvmerge v7.0.0 ('Where We Going') 64bit built on Jun 9 2014 15:16:27
Writing library : libebml v1.3.0 + libmatroska v1.4.1


Video
ID : 1
Format : AVC
Format/Info : Advanced Video Codec
Format profile : [email protected]
Format settings, CABAC : Yes
Format settings, ReFrames : 5 frames
Codec ID : V_MPEG4/ISO/AVC
Duration : 2 h 1 min
Bit rate : 11.0 Mb/s
Width : 1 918 pixels
Height : 816 pixels
Display aspect ratio : 2.35:1
Frame rate mode : Constant
Frame rate : 23.976 (24000/1001) FPS
Color space : YUV
Chroma subsampling : 4:2:0
Bit depth : 8 bits
Scan type : Progressive
Bits/(Pixel*Frame) : 0.293
Stream size : 9.36 GiB (88%)
Title : 11000 kbps
Writing library : x264 core 110 r1804 e89c4cf


Audio
ID : 2
Format : DTS
Format/Info : Digital Theater Systems
Mode : 16
Format settings, Endianness : Big
Codec ID : A_DTS
Duration : 2 h 1 min
Bit rate mode : Constant
Bit rate : 1 509 kb/s
Channel(s) : 6 channels
Channel positions : Front: L C R, Side: L R, LFE
Sampling rate : 48.0 kHz
Frame rate : 93.750 FPS (512 spf)
Bit depth : 24 bits
Compression mode : Lossy
Stream size : 1.28 GiB (12%)
Title : Main Audio
Language : English
Default : Yes
Forced : No



DOWNLOAD
[hide][/hide]




SUBTITLE
[hide][/hide]
Loading...

Xem thêm chủ đề liên quan: