The Secret of Kells 2010 1080p BluRay REMUX AVC DTS-HD MA.5.1-EPSiLON
Bí Mật Của Kells
Evan McGuire, Brendan Gleeson, Mick Lally


The Secret of Kells, là câu chuyện về cậu bé 12 tuổi Brendan và cuộc phiêu lưu để hoàn thành The Book of Kells, mộtcuốn sách có thực của thế kỷ thứ 9, được người dân Ireland coi là quốc bảo. Trước khi làm Tu viện trưởng, bác của Brendan từng là một Illuminator - một họa sư tài ba. Bị nguy cơ xâm lăng của hải tặc Viking ám ảnh, ông dồn tâm sức để xây dựng một tòa thành bảo vệ người dân địa phương. Cậu bé Brendan lớn lên trong vòng tay quản thúc của ông bác và sống một cuộc đời bình lặng sau những bức tường thành. Nhưng một ngày kia, tất cả đã hoàn toàn thay đổi với sự xuất hiện của Họa sư Aidan cùng chú mèo Pangur Ban. Ông lão râu bạc đã khơi dậy nơi Brendan tình yêu dành cho nghệ thuật trang trí sách và thôi thúc cậu khám phá thế giới ngoài những bức tường thành. Với chú mèo trắng đặc biệt dễ thương làm bạn đồng hành, Brendan đã có cuộc tao ngộ kỳ thú với Aisling, một cô bé có thân phận bí hiểm trú ngụ trong khu rừng gần đó, trước khi vượt qua vô vàn thách thức và hiểm nguy để đeo đuổi một sứ mệnh mà có lẽ cậu được sinh ra để hoàn thành: biến bóng tối thành ánh sáng.
Sức mạnh của The Secret of Kells nằm ở từng nét vẽ và trong mỗi gam màu mà Tomm Moore và Nora Twomey đem đến cho bộ phim truyện đầu tay của họ. Nếu Up là một đại diện tiêu biểu của công nghệ hiện đại, của hiệu ứng 3D và đồ họa vi tính, thì Kells, khai thác chất liệu của hội họa tiền Phục hưng, lại đứng ở bờ bên kia của thế giới hoạt hình với những khung hình phẳng - mọi quy tắc phối cảnh đều bị gạt bỏ: gà, lợn, ngỗng và tu sĩ xuất hiện trên cùng một mặt phẳng bất kể họ ở gần hay xa. Nhưng đây mới chỉ là điểm độc đáo đầu tiên trong phong cách hình họa của Kells. Lấy cảm hứng từ cuốn sách nổi tiếng của Ireland thời Trung cổ, bộ phim gây ấn tượng thị giác mạnh mẽ lên khán giả bằng vô số họa tiết phức tạp và tinh tế điển hình cho nghệ thuật trang trí kinh sách (illumination) cổ xưa. Những làn sương mỏng mảnh, những hoa văn cầu kỳ, những cỏ hoa và cây cối uốn lượn như mê cung, tất cả khiến ta thấy như đang lạc vào một tiên cảnh miền Celtic. Ross Stewart – đạo diễn nghệ thuật của Kells hiểu rõ rằng nếu xử lý đường nét của nhân vật cũng bằng phong cách được áp dụng với thiên nhiên, thì họ sẽ chìm trong sự phức tạp của hậu cảnh. Bởi vậy, đoàn làm phim đã chọn một cách tiếp cận khác. Từ Brendan và Aisling tới muông thú, từ các tu sĩ đến hải tặc Viking, tất cả đều được phác thảo theo những hình khối cách điệu, vuông vức có, tròn trịa có, thô ráp có mà mềm mại cũng có, và trong từng đường nét rực rỡ sắc màu đều hiện lên vẻ táo bạo, quyết đoán mang đậm hơi hướng thời Trung cổ. Phong cách tạo hình này càng phát huy hiệu quả thị giác khi được bổ trợ bằng một phong cách thiết kế chuyển động cũng rất đặc thù. Khác với nét vẽ mượt mà quen thuộc kiểu Disney, cử động của nhân vật trong Kells nhanh, mạnh, dứt khoát, song vẫn không kém phần thanh thoát và duyên dáng (mà Aisling và Pandur Ban là tiêu biểu). Không dừng lại ở đó, Kells còn sở hữu một lối kể chuyện rất ảo với những chi tiết khơi gợi mạnh mẽ trí tưởng tượng. Huyền thoại về cuốn sách được các tu sĩ kể lại như một đoạn phim nhựa pop-up với nét vẽ hoạt kê. Cuộc đối đầu của Brendan với con quái xà Crom mang đậm màu sắc ẩn dụ, trong khi cảnh Aisling phù phép lên chú mèo lại bay bổng và rất đỗi siêu thực. Đây cũng là một trường đoạn đặc biệt ấn tượng nơi Bruno Coulais chứng minh mình là lựa chọn chính xác cho vai trò nhà soạn nhạc cho Kells. Chất dân ca Celtic qua giọng ca thơ trẻ của Christen Mooney (lồng tiếng Aisling) có lẽ sẽ còn vương vấn trong tâm trí khán giả rất lâu sau khi chúng ta đã đi hết 75 phút tưng bừng màu sắc của bộ phim.







INFORMATION

Format : Matroska
Format version : Version 4 / Version 2
File size : 17.7 GiB
Duration : 1 h 19 min
Overall bit rate mode : Variable
Overall bit rate : 32.1 Mb/s
Encoded date : UTC 2017-12-18 05:49:38
Writing application : mkvmerge v19.0.0 ('Brave Captain') 64-bit
Writing library : libebml v1.3.5 + libmatroska v1.4.8
Video
ID : 1
Format : AVC
Format/Info : Advanced Video Codec
Format profile : [email protected]
Format settings, CABAC : Yes
Format settings, ReFrames : 4 frames
Codec ID : V_MPEG4/ISO/AVC
Duration : 1 h 18 min
Bit rate mode : Variable
Bit rate : 28.4 Mb/s
Maximum bit rate : 35.0 Mb/s
Width : 1 920 pixels
Height : 1 080 pixels
Display aspect ratio : 16:9
Frame rate mode : Constant
Frame rate : 23.976 (24000/1001) FPS
Color space : YUV
Chroma subsampling : 4:2:0
Bit depth : 8 bits
Scan type : Progressive
Bits/(Pixel*Frame) : 0.571
Stream size : 15.6 GiB (88%)
Title : MPEG-4 AVC Video / 28467 kbps / 1080p / 23.976 fps / 16:9 / High Profile 4.1
Language : English
Default : Yes
Forced : No
Color range : Limited
Color primaries : BT.709
Transfer characteristics : BT.709
Matrix coefficients : BT.709
Audio #1
ID : 2
Format : DTS
Format/Info : Digital Theater Systems
Format profile : MA / Core
Mode : 16
Format settings, Endianness : Big
Codec ID : A_DTS
Duration : 1 h 19 min
Bit rate mode : Variable / Constant
Bit rate : 2 145 kb/s / 1 509 kb/s
Channel(s) : 6 channels
Channel positions : Front: L C R, Side: L R, LFE
Sampling rate : 48.0 kHz
Frame rate : 93.750 FPS (512 spf)
Bit depth : 16 bits
Compression mode : Lossless / Lossy
Stream size : 1.18 GiB (7%)
Title : DTS-HD Master Audio / 2152 kbps / 5.1 / 48 kHz / 16-bit
Language : English
Default : Yes
Forced : No
Audio #2
ID : 3
Format : DTS
Format/Info : Digital Theater Systems
Format profile : MA / Core
Mode : 16
Format settings, Endianness : Big
Codec ID : A_DTS
Duration : 1 h 19 min
Bit rate mode : Variable / Constant
Bit rate : 1 655 kb/s / 1 509 kb/s
Channel(s) : 2 channels
Channel positions : Front: L R
Sampling rate : 48.0 kHz
Frame rate : 93.750 FPS (512 spf)
Bit depth : 16 bits
Compression mode : Lossless / Lossy
Stream size : 935 MiB (5%)
Title : Commentary by Tomm Moore [Director], Nora Twomey [Co-Director] and Ross Stewart [Art Director] / DTS-HD Master Audio / 1661 kbps / 2.0 / 48 kHz / 16-bit
Language : English
Default : No
Forced : No







DOWNLOAD
[hide][/hide]




SUBTITLE










Loading...

Xem thêm chủ đề liên quan: